忍者ブログ

defactory

日記なのか酒blogなのか

家電IoT用に LS mini 導入してみました

LS Mini 第2世代 スマートホームコントローラー
Live Smart
売り上げランキング: 194


室温や照度のセンサーを内蔵しているこの LS mini を導入してみました。
最近の夏は暑すぎるので、常時稼働のじたくPCとかありますので、室温35度を超えたらちょっと冷房を入れるとかのコントロールしたいですよね。

ということで、今まで使用していた Link japan の eRemote mini は自分の部屋から居間に移動し、そちらでのコントロールに使用することに。


まずは、購入した LS mini を自宅の無線LANに接続する必要があります。SSIDと登録してある16桁のパスワード(自宅の無線LANのパスワードはついつい調子に乗って16桁w)を登録して…
接続できたかと、LS mini のランプを見ると、なんと 赤い点滅! 何か失敗しているのでしょうか。
致し方ないので、もう一度!と5回ほどチャレンジしても赤い点滅…

返品という文字が頭をかすめつつ到着当日は諦めて、(呑んでいて)忙しかった翌日は放置だったのですが、翌々日に改めて LS mini のランプを見ると、なんとグリーンになっているではないですか!

何処かの妖精さんが設定してくれたのか、何かの再起動が必要だったのか、単に時間が多少必要だったのかは不明ですが、恐る恐るスマホからアクセスしてみると、照度や室温の初期設定が出来ちゃいます!

ということで、さっそくエアコン、テレビ、照明の設定を行い(全部手動設定だった…)、Amazon Echo Dot の Alexa と連携。声でON/OFFやチャネル変更などができるようになりました。慣れないのは、今まで部屋の照明を「照明」と呼んでいたのが「ライト」になったことぐらいかな。


あとは、温度連携とか照度連携などを試してみなくては。
PR

日本酒:而今 純米吟醸 千本錦無濾過生

而今 純米吟醸 千本錦無濾過生
而今 純米吟醸 千本錦無濾過生 posted by (C)mch


外でも散々而今を飲んでいますが、自宅の一升瓶も開栓。
軽やかな発泡感があり、いつもながら美味しくいただいております。

微発泡感が残る間に消費…しちゃいますね。

音楽DVDから音だけ取り出す

音楽CDは、東日本大震災の地震の際に入れていたケースが崩れ、中身が飛び出してCDの再生面に傷がつくという憂き目にあったことがあるため、基本的に生き残ったCDおよび以降に購入したCDは、EAC(Exact Audio Copy)を使用して、flac+cueで丸々抽出しております。(最初はapeでスタートしたのですが、対応DAPの少なさや再生時のCPU負荷などでflacに移行しました…)

元来、音楽再生は基本的に「アルバム単位で再生」で「時々(年に数回)、曲をスキップしたくなる程度」、「でも曲名もたまには(年に数回)確認したくなる」という状況であるため、曲を個々に分割するよりも、CD一枚を丸々圧縮して、cueシートを作っておくほうが性に合っているようです。
cueファイルをflacファイル内に internal cue 化してしまうと、Android の Poweramp などでも使えますし、スマホのバッテリーが減るのが嫌な時用の Walkman でも cue の読み込みには対応していないものの flac ファイルは問題なく再生できます。

そんな環境の中、問題なのは 音楽DVD です。可愛いアイドルが歌っている姿を見る楽しみの趣味は無いため、音楽DVD といっても動画は一度見たら終わりとなってしまうことが多くあります。
更には、所持している 音楽DVD は基本的に音楽CDと同じ LPCM ですので、サンプリング周波数の違いの分だけ CD よりもやや音が良い!
ただし、古い画像の安物海外DVDは、DVDへの記録時点で圧縮されているものが多くあるので注意です。Deep Purple とか Led Zeppelin とかの古いライブDVD(安物)は圧縮音源でした。
ですので、余計にCDから抽出して音楽を聴いているのと同じように、DVDから音楽を丸々っと抽出して持ち合付けると、何度も画像を見ることがない自分にとっては十分なバックアップおよび再生環境の基となってくれそうです。

ということで、DVDから音楽を抽出してcueシートを作って聴くことにしてみました。

Google先生に方法を尋ねてみると、

1) DVDからvobファイルを DVD Descriptor などで PC にコピーして、
2) DVD2AVI というプログラムで wav等の”音” を抽出。
3) IfoEdit でDVDのチャプタ情報を表示して、
4) エディター等で cue を作成。(ここが面倒)
5) 2)で抽出したwavをflacに適当なツールを使って変換。(簡単なツールではありませんが、XMediaRecode というのを長年使用しています)
6) Windows だと、「AIMP」などの ツールで cue を再生。

という大まかな手順になるようです。

CD化するために44.1kHzにサンプリングレートを変換したり、無音部分を削除したりと、色々と作業する手順もあるようですが、CD化などせずにDAPやスマホで聴くことが多いので、cue編集もそれほど手間を掛けずに実施することが出来ます。
各種ソフトの使い方などは、色々なサイトに書かれていますので割愛。

cueシートは、作る人毎に様々なので、自分の作ってみたcueシートのサンプルを以下に。なお差し障りがあるといけませんので、仮想の長大な楽曲4曲のライブDVDを想定してみました。

REM GENRE Jazz
REM DATE 2019
REM COMMENT from DVD LPCM
PERFORMER "The Foo"
TITLE "1st LIVE"
FILE "The Foo - 1st LIVE [DVD LPCM].wav" WAVE
TRACK 01 AUDIO
    TITLE "Moonbeam"
    INDEX 01 00:00:00
TRACK 02 AUDIO
    TITLE "Aristocrat Rock"
    INDEX 01 24:12:08
TRACK 03 AUDIO
    TITLE "Bachelor Days"
    INDEX 01 48:33:12
TRACK 04 AUDIO
    TITLE "Ballad"
    INDEX 01 72:10:04

行の最初が ”REM ” で始まっているのはコメント行で、少々の情報を保持しておくのに使用してみました。

REM GENRE Jazz
ジャンルはJazzです。

REM DATE 2019
DVDの発売年は2019年です。

REM COMMENT from DVD LPCM
単なるコメントです。 DVDからで、LPCM (Linear Pulse Code Modulation)です。
DVDのLPCMは16bit 48kHzで、CDなら 16bit 44.1kHzですね。

PERFORMER "The Foo"
演奏しているのは、The Foo (そんなバンド存在していない)。

TITLE "1st LIVE"
DVDのタイトルは、1st LIVE です。

FILE "The Foo - 1st LIVE [DVD LPCM].wav" WAVE
DVDから抜き出したデータのファイル名です。
拡張子でwav となっていますが、アプリによってはflacやapeなどで圧縮し、拡張子がflacとかapeとかになっていてもファイルを探してくれます。
大昔は圧縮率の高い ape を好んでいましたが、最近はDAPなどでも対応しているflacにばかり変換しています。

TRACK 01 AUDIO
ここから1曲目。 番号は、01から順番に振ることとなっており、最大は99となっているはずです。
AUDIOの意味は、CD-DA (Compact Disc Digital Audio)の規格のオーディオトラックであるという意味ですから、正確には違いますよね。でも気にしない。

TITLE "Moonbeam"
曲名です。

INDEX 01 00:00:00
1曲目(1チャプター目)の開始位置です。INDEX 00 というギャップを指定することもありますが、変換したいのはライブのDVDなので開始位置だけで十分です。 1曲目(1チャプター目)の開始位置なのでオールゼロとなるのが当然かと思っています。 2曲目以降は、IfoEdit で表示されている値を書き込むことになりますが、DVDの場合、時:分:秒.フレーム という表示がされていますが、cueシートはCD用なので、分:秒:フレーム という記述になります。
例えば、IfoEdit にて 「01:12:03.10」となっていると、1時間12分3秒10フレームということなので、CD用に「72:03:10」つまり72分3秒10フレームと書き直す必要があります。



cueシートの作成は、キャプター名(曲名)を書くことと、IfoEditで表示される開始位置を書き込むのが大変ですが、その後の利用を考えると、それほど大きな手間ではないかな。
なお、古い洋楽のライブDVDは、音楽をとりだした段階で ac3 形式となっているので、ロスレスの flac に変換する必要もなく、そのまま ac3 で保存します。 でも、ac3 + cue にて楽曲を再生してくれるプログラムはあるのかな?foobar2000とかかな?

(最近の)Apple製品やWalkmanなどでも再生が可能な flac ですが、DAPの対応状況によってはWavPackやTAK形式という可逆圧縮形式が圧縮率や展開の軽さなどで移行しても良いかなと考えています。まだまだ先の将来でしょうけど。

Amazfit BIP が睡眠記録をしなくなっている…

昨年10月から使用している Amazfit BIP ですが、先月 2月27日から睡眠記録を取らなくなっています。




確か、この直前あたりでファームが入れ替わっていたような…
バグなのか、個人輸入商品の閉め出しなのか?


追記:2019-3-7
いったん、アプリ(Mi Fit)上からデバイスのペアリングを解除し、その後再度ペアリングをやり直したところ、正常に睡眠データが取れるようになりました。
また、同時に通知系も死んでいたようで、頻繁にスマホの通知が届くようになりました。

「ペアリングをやり直したら直るんじゃないか」と思いつくまで、丸一週間かかりました…

日本酒:醸し人九平次 うすにごり 生

醸し人九平次 うすにごり 生
醸し人九平次 うすにごり 生 posted by (C)mch


九平次の珍しい生酒。
なんと7年ぶりの生酒で店頭販売無しの完全予約販売(蔵元直送)というお酒です。

黒田庄産の山田錦を全量使用した酒なのですが、精米歩合・酸度・日本酒度などは非公開となっています。
期待が高まったところで、呑んでみると、美味い!

でも、でも、普通に九平次です。
十四代が十四代で、而今が而今、獺祭が獺祭なように、九平次なんですよ。

アクセス解析

Copyright © defactory : All rights reserved

TemplateDesign by KARMA7

忍者ブログ [PR]